找回密码
 我要注册
点我去除广告
收起左侧

地方卫视 《早餐中国·第三季》01-05.2020.中国.美食[MP4][2160p][国语中字]

0
回复
1027
查看
[ 复制链接 ]

签到天数: 26 天

连续签到: 1 天

[LV.4]偶尔看看III

2020-11-3 21:48:57 显示全部楼层 阅读模式
本次更新5集 本贴预计更新10集 网友转发
早餐中国.第三季.jpg
导演: 王圣志
类型: 纪录片
制片国家/地区: 中国大陆
语言: 汉语普通话
首播: 2020-10-19(中国大陆)
季数: 3
集数: 30
单集片长: 7分钟
又名: 早餐中国3 / Breakfast in China Ⅲ

  《早餐中国》是由腾讯视频和福建海峡卫视联合出品的大型美食短纪录片。第三季将延续前两季的风格,用早餐复苏味蕾,用烟火赶走阴霾,用家乡食温暖家乡胃。30个普通的早餐店,30个酸甜苦辣的家庭故事。人间烟火,气象万千,平凡生活有苦有泪,但慰藉的到来同样势不可挡。请相信,明天太阳照常升起。

🔣分级目录
第1集 山西荫城•猪汤
第2集 浙江舟山•海鲜面
第3集 河北河间·驴肉火烧
第4集 黑龙江哈尔滨·豆腐脑
第5集 河南灵宝·石子馍夹凉粉

第6集 安徽亳州·牛肉馍
第7集 陕西渭南·豆腐泡馍
第8集 甘肃张掖·牛肉小饭

  1. General
  2. Complete name                  : I:\HD.2020.早餐中国.第三季.Breakfast.In.China.Ⅲ.WEB-DL.4k.H265.AAC-HDSWEB\早餐中国.第三季.Breakfast.In.China.Ⅲ.2020.E01.WEB-DL.4k.H265.AAC.mp4
  3. Format                         : MPEG-4
  4. Format profile                 : Base Media
  5. Codec ID                       : isom (isom/iso2/mp41)
  6. File size                      : 333 MiB
  7. Duration                       : 9 min 22 s
  8. Overall bit rate               : 4 974 kb/s
  9. Writing application            : Lavf58.32.104

  10. Video
  11. ID                             : 1
  12. Format                         : HEVC
  13. Format/Info                    : High Efficiency Video Coding
  14. Format profile                 : Main@L5@Main
  15. Codec ID                       : hev1
  16. Codec ID/Info                  : High Efficiency Video Coding
  17. Duration                       : 9 min 22 s
  18. Bit rate                       : 4 840 kb/s
  19. Width                          : 3 840 pixels
  20. Height                         : 2 160 pixels
  21. Display aspect ratio           : 16:9
  22. Frame rate mode                : Variable
  23. Frame rate                     : 25.000 FPS
  24. Minimum frame rate             : 24.993 FPS
  25. Maximum frame rate             : 25.007 FPS
  26. Color space                    : YUV
  27. Chroma subsampling             : 4:2:0
  28. Bit depth                      : 8 bits
  29. Bits/(Pixel*Frame)             : 0.023
  30. Stream size                    : 324 MiB (97%)
  31. Color range                    : Limited
  32. Color primaries                : BT.709
  33. Transfer characteristics       : BT.709
  34. Matrix coefficients            : BT.709
  35. Codec configuration box        : hvcC

  36. Audio
  37. ID                             : 2
  38. Format                         : AAC LC
  39. Format/Info                    : Advanced Audio Codec Low Complexity
  40. Codec ID                       : mp4a-40-2
  41. Duration                       : 9 min 22 s
  42. Bit rate mode                  : Constant
  43. Bit rate                       : 128 kb/s
  44. Channel(s)                     : 2 channels
  45. Channel layout                 : L R
  46. Sampling rate                  : 48.0 kHz
  47. Frame rate                     : 46.875 FPS (1024 SPF)
  48. Compression mode               : Lossy
  49. Stream size                    : 8.57 MiB (3%)
  50. Default                        : Yes
  51. Alternate group                : 1

复制代码

下载地址

购买主题 已有 5 人购买  本主题需向作者支付 60 记录币 才能浏览
第一记录社区汇集了大量优秀经典纪录片,集纳国内地方台、BBC、国家地理、美国历史频道、NHK等各具特色的高清正版纪录片资源,是国内纪录片资源较为丰富的视频下载网站
您需要登录后才可以回帖 登录 | 我要注册

本版积分规则