找回密码
 我要注册
点我去除广告
收起左侧

地方卫视 《老广的味道 第六季》全8集.2021.中国.美食[MKV][2160P][国语中字]

4
回复
1106
查看
[ 复制链接 ]

签到天数: 26 天

连续签到: 1 天

[LV.4]偶尔看看III

2021-3-1 08:36:32 显示全部楼层 阅读模式
更新完毕
老广的味道 第六季.jpg
◎片  名 老广的味道 第六季
◎年  代 2021
◎产  地 中国大陆
◎类  别 
◎语  言 汉语普通话,粤语
◎上映日期 2021-02-13(中国大陆)
◎豆瓣评分 /10 from 0 users
◎豆瓣链接 https://movie.douban.com/subject/35366314/
◎集  数 8
◎片  长 44分钟
◎导  演 李伊平 Yiping Li

◎简  介

  广东卫视自制美食纪录片《老广的味道》是国内美食视频类头部IP,2015年至今已制作至第六季。节目以食物为载体,通过美食这一“小切口”讲好“中国故事”,展现岭南农业文化和海洋文化的情怀与自信。节目第六季共八集。
主题为:
食不可貌相、
虾兵蟹将、
地标食记、
老字号、
零食记忆、
辣在岭南、
街头米其林、
美食博主

  1. General
  2. Unique ID                      : 274891026895102021775451699507862996909 (0xCECE160504854BADD9375DBFE84087AD)
  3. Complete name                  :[老广的味道].A.Bite.of.Guangdong.2021.S06.WEB-DL.4K.H265.DDP2.0-PTerWEB\老广的味道.A.Bite.of.Guangdong.2021.S06E01.WEB-DL.4K.H265.DDP2.0-PTerWEB.mkv
  4. Format                         : Matroska
  5. Format version                 : Version 4
  6. File size                      : 1.53 GiB
  7. Duration                       : 43 min 40 s
  8. Overall bit rate               : 5 016 kb/s
  9. Encoded date                   : UTC 2021-02-13 14:36:28
  10. Writing application            : mkvmerge v51.0.0 ('I Wish') 64-bit
  11. Writing library                : libebml v1.4.0 + libmatroska v1.6.2

  12. Video
  13. ID                             : 1
  14. Format                         : HEVC
  15. Format/Info                    : High Efficiency Video Coding
  16. Format profile                 : Main@L5@Main
  17. Codec ID                       : V_MPEGH/ISO/HEVC
  18. Duration                       : 43 min 40 s
  19. Bit rate                       : 4 758 kb/s
  20. Width                          : 3 840 pixels
  21. Height                         : 2 160 pixels
  22. Display aspect ratio           : 16:9
  23. Frame rate mode                : Constant
  24. Frame rate                     : 25.000 FPS
  25. Color space                    : YUV
  26. Chroma subsampling             : 4:2:0
  27. Bit depth                      : 8 bits
  28. Bits/(Pixel*Frame)             : 0.023
  29. Stream size                    : 1.45 GiB (95%)
  30. Default                        : Yes
  31. Forced                         : No

  32. Audio
  33. ID                             : 2
  34. Format                         : E-AC-3
  35. Format/Info                    : Enhanced AC-3
  36. Commercial name                : Dolby Digital Plus
  37. Codec ID                       : A_EAC3
  38. Duration                       : 43 min 40 s
  39. Bit rate mode                  : Constant
  40. Bit rate                       : 256 kb/s
  41. Channel(s)                     : 2 channels
  42. Channel layout                 : L R
  43. Sampling rate                  : 48.0 kHz
  44. Frame rate                     : 31.250 FPS (1536 SPF)
  45. Compression mode               : Lossy
  46. Stream size                    : 80.0 MiB (5%)
  47. Service kind                   : Complete Main
  48. Default                        : Yes
  49. Forced                         : No
复制代码

下载地址
购买主题 已有 30 人购买  本主题需向作者支付 60 记录币 才能浏览
第一记录社区汇集了大量优秀经典纪录片,集纳国内地方台、BBC、国家地理、美国历史频道、NHK等各具特色的高清正版纪录片资源,是国内纪录片资源较为丰富的视频下载网站

签到天数: 50 天

连续签到: 13 天

[LV.5]常住居民I

2021-3-2 10:06:46 显示全部楼层
加入VIP,免费下载全站精品资源
谢谢楼主分享
第一记录社区汇集了大量优秀经典纪录片,集纳国内地方台、BBC、国家地理、美国历史频道、NHK等各具特色的高清正版纪录片资源,是国内纪录片资源较为丰富的视频下载网站
回复

使用道具 举报

签到天数: 607 天

连续签到: 41 天

[LV.9]以坛为家II

2021-3-22 16:06:20 显示全部楼层
加入VIP,免费下载全站精品资源
感谢分享,这个纪录片追了好几年了
第一记录社区汇集了大量优秀经典纪录片,集纳国内地方台、BBC、国家地理、美国历史频道、NHK等各具特色的高清正版纪录片资源,是国内纪录片资源较为丰富的视频下载网站
回复

使用道具 举报

签到天数: 3 天

连续签到: 2 天

[LV.2]偶尔看看I

2021-4-12 11:57:46 显示全部楼层
加入VIP,免费下载全站精品资源
大佬 ,链接在哪
第一记录社区汇集了大量优秀经典纪录片,集纳国内地方台、BBC、国家地理、美国历史频道、NHK等各具特色的高清正版纪录片资源,是国内纪录片资源较为丰富的视频下载网站
回复

使用道具 举报

签到天数: 2 天

连续签到: 1 天

[LV.1]初来乍到

昨天 20:31 显示全部楼层
加入VIP,免费下载全站精品资源
谢谢楼主分享
第一记录社区汇集了大量优秀经典纪录片,集纳国内地方台、BBC、国家地理、美国历史频道、NHK等各具特色的高清正版纪录片资源,是国内纪录片资源较为丰富的视频下载网站
回复

使用道具 举报

您需要登录后才可以回帖 登录 | 我要注册

本版积分规则