找回密码
 我要注册
点我去除广告
收起左侧

BBC 《雪地求生:熊孩子的奇幻之旅》全1集.2017.英国.动物[MP4][1080P][英语中字]

1
回复
1300
查看
[ 复制链接 ]

签到天数: 26 天

连续签到: 1 天

[LV.4]偶尔看看III

2021-3-19 11:02:38 显示全部楼层 阅读模式
雪地求生:熊孩子的奇幻之旅(2017).jpg
导演: 约翰·唐纳
主演: 凯特·温丝莱特 / 季冠霖
类型: 纪录片
官方网站: www.bbc.co.uk/programmes/b09m1vpg
制片国家/地区: 英国
语言: 英语
上映日期: 2017-12-27(中国大陆)
片长: 50
IMDb链接: tt7798174


  《雪地求生:熊孩子的奇幻之旅》讲述了两只北极熊幼崽首次离开巢穴,和妈妈一起开启一段迁徙旅程的故事,在海冰消融前,努力抵达冰面。北极熊一家三口一路向北,在浮冰之间游动,直到离开北极100多千米。为了能够在最艰苦的环境下保护自己的幼崽,母熊尝试了各种办法,甚至甘愿为孩子付出自己的一切……这样一个扣人心弦又感人肺腑的故事,不仅可以鼓励孩子们树立起面对困难也要勇敢克服的信心和胆气,也让观众在欣赏影片的过程中感受到爱的强大力量。



  1. General
  2. Complete name                  : BBC.2017.[雪地求生:熊孩子的奇幻之旅].Snow Bears.WEB-DL.4k.H265.AAC-PTHome【4K】\雪地求生:熊孩子的奇幻之旅[中文版].Snow Bears.2017.WEB-DL.4k.H265.AAC.mp4
  3. Format                         : MPEG-4
  4. Format profile                 : Base Media
  5. Codec ID                       : isom (isom/iso2/mp41)
  6. File size                      : 1.73 GiB
  7. Duration                       : 51 min 56 s
  8. Overall bit rate mode          : Variable
  9. Overall bit rate               : 4 755 kb/s
  10. Writing application            : Lavf58.12.100

  11. Video
  12. ID                             : 1
  13. Format                         : HEVC
  14. Format/Info                    : High Efficiency Video Coding
  15. Format profile                 : Main@L5@Main
  16. Codec ID                       : hev1
  17. Codec ID/Info                  : High Efficiency Video Coding
  18. Duration                       : 51 min 56 s
  19. Bit rate                       : 4 560 kb/s
  20. Width                          : 3 840 pixels
  21. Height                         : 2 160 pixels
  22. Display aspect ratio           : 16:9
  23. Frame rate mode                : Constant
  24. Frame rate                     : 25.000 FPS
  25. Color space                    : YUV
  26. Chroma subsampling             : 4:2:0
  27. Bit depth                      : 8 bits
  28. Bits/(Pixel*Frame)             : 0.022
  29. Stream size                    : 1.65 GiB (96%)
  30. Color range                    : Limited
  31. Color primaries                : BT.709
  32. Transfer characteristics       : BT.709
  33. Matrix coefficients            : BT.709
  34. Codec configuration box        : hvcC

  35. Audio
  36. ID                             : 2
  37. Format                         : AAC LC
  38. Format/Info                    : Advanced Audio Codec Low Complexity
  39. Codec ID                       : mp4a-40-2
  40. Duration                       : 51 min 56 s
  41. Bit rate mode                  : Variable
  42. Bit rate                       : 192 kb/s
  43. Channel(s)                     : 2 channels
  44. Channel layout                 : L R
  45. Sampling rate                  : 48.0 kHz
  46. Frame rate                     : 46.875 FPS (1024 SPF)
  47. Compression mode               : Lossy
  48. Stream size                    : 70.4 MiB (4%)
  49. Default                        : Yes
  50. Alternate group                : 1
复制代码


下载地址
购买主题 已有 3 人购买  本主题需向作者支付 30 记录币 才能浏览
第一记录社区汇集了大量优秀经典纪录片,集纳国内地方台、BBC、国家地理、美国历史频道、NHK等各具特色的高清正版纪录片资源,是国内纪录片资源较为丰富的视频下载网站

签到天数: 87 天

连续签到: 1 天

[LV.6]常住居民II

2021-3-28 21:13:19 显示全部楼层
加入VIP,免费下载全站精品资源
谢谢 分享  雪地求生!!
第一记录社区汇集了大量优秀经典纪录片,集纳国内地方台、BBC、国家地理、美国历史频道、NHK等各具特色的高清正版纪录片资源,是国内纪录片资源较为丰富的视频下载网站
回复

使用道具 举报

您需要登录后才可以回帖 登录 | 我要注册

本版积分规则