找回密码
 我要注册
点我去除广告

地方卫视 《陈廷敬的为官之道》2018.中国.人物[MP4][1080p][全4集]

马上注册,下载更多资源!

您需要 登录 才可以下载或查看,没有账号?我要注册

x
陈廷敬的为官之道 (2018).jpg
0 _: g) v& _$ k
2 K- H& F9 O) g
% h' ~" E- w- I* v) d◎片  名 陈廷敬的为官之道
0 k4 P0 Z2 p' t# ~1 |4 k; k◎年  代 2018& ?0 R; U9 b7 Q' P3 p
◎产  地 中国大陆) I2 A. v8 p; S( i' r
◎类  别 纪录片. ^: b7 s  O+ u0 |, B3 e+ V: p
◎语  言 汉语普通话
4 d6 ~" Q/ |; y' \( W" [◎上映日期 2018-10-16(中国大陆)
) G3 K% Y- @* K6 R! `◎豆瓣评分 /10 from 0 users
- u6 s- W2 O' i: F, j◎豆瓣链接 https://movie.douban.com/subject/34434419/4 ?2 {( n7 c: [
◎集  数 4
( z4 W/ R2 j9 X2 c9 h◎片  长 25分钟( B  _+ [" _+ O, W# F' a4 j
◎导  演 杨宝成 Baocheng Yang / 杨宝成 Baocheng Yang
9 ~, a# O; R/ A/ l
3 F# O; G1 r  Z6 }( X◎简  介
/ a  R: v  g2 q  m  官场宦海历来是风起云涌之地,浮沉难料。康熙年代与陈廷敬同朝为官的几大名臣中,明珠极尽恩宠,最终却被罢相削权;索额图也曾尊荣备至,最后却身陷囹圄;徐乾学聪明反被聪明误,去官之后郁郁早逝;高士奇八面玲珑,左右逢源,最终也被斥退回籍。这些重臣名宦少有善终。唯独陈廷敬驰骋官场50年,晚年乞归之后仍被康熙帝召回。然而,就是这样的一个风云人物,清史中却记载甚少。
& a+ I5 y2 @3 ~1 W6 f0 R* e+ f) `3 d1 h& p

3 w- n0 `- a9 r1 }

  1. $ z$ [# c' c' y1 G, F  q! v7 O; ~
  2. General
    3 D( x, r( s7 V( J5 c+ n
  3. Complete name                  : 陈廷敬 第一集 1080P.mp4& o( N; Y3 c; `* B2 I
  4. Format                         : MPEG-4
    " U# V; ^; m4 k* p' H; M
  5. Format profile                 : Base Media) k2 j: n5 B' }, T" U! H
  6. Codec ID                       : isom (isom/iso2/avc1/mp41)6 K9 J/ g1 a: C
  7. File size                      : 481 MiB
    * k" ?; f& |4 ^( a8 V
  8. Duration                       : 25 min 0 s
    + B0 [, q) h9 W
  9. Overall bit rate               : 2 689 kb/s* f  N8 k( D; Q2 P; `+ V* W1 `
  10. Writing application            : Lavf58.33.100
    % v; L0 |2 @' {) `, O' L

  11.   ~& x$ }$ W3 c+ w* t
  12. Video
    $ A% \* X+ g$ x9 Y2 ?
  13. ID                             : 15 s" V" e) r5 o' ]) Z
  14. Format                         : AVC. p+ K8 ^! i7 F, k
  15. Format/Info                    : Advanced Video Codec+ l7 V( @# Y5 O  s& j% ~- b. |- y' u# e
  16. Format profile                 : High@L4
    ' W& y/ Z) p$ ?+ [( w
  17. Format settings                : CABAC / 4 Ref Frames7 m% ~2 z0 T' {* {8 ~; T3 x
  18. Format settings, CABAC         : Yes+ O( b% L+ g# O9 L/ H. u8 p
  19. Format settings, Reference fra : 4 frames
    9 h8 Y  Y" B8 I0 \# R4 T
  20. Codec ID                       : avc1
    # H) I" r1 N+ L
  21. Codec ID/Info                  : Advanced Video Coding: P$ P) k& Y; N  Q6 ]6 `3 S: C+ v
  22. Duration                       : 25 min 0 s  e) W& I3 m  F' V  P- Q$ U
  23. Bit rate                       : 2 554 kb/s
    ' o8 k) f9 E7 n/ d8 W6 f! C1 L1 w2 s1 c
  24. Width                          : 1 920 pixels( `: i$ ]$ e: M" H/ E
  25. Height                         : 1 080 pixels
    8 ^5 r1 x4 G& R% ]9 c
  26. Display aspect ratio           : 16:9
    ) Y1 c3 }/ U, K) J5 ^3 v
  27. Frame rate mode                : Constant& S) ~" }: V9 `* H+ A
  28. Frame rate                     : 25.000 FPS
    ' i2 E' d; }. `; c9 D; h
  29. Color space                    : YUV
    - [5 g: T; Z+ A" H4 M
  30. Chroma subsampling             : 4:2:00 M7 t6 H1 J& C; E% z
  31. Bit depth                      : 8 bits* U) n$ ?. ~8 g2 F2 x  c
  32. Scan type                      : Progressive
    # v" l8 g9 r$ a- H; V
  33. Bits/(Pixel*Frame)             : 0.049
    8 H; r8 S2 G" c+ }* E1 u$ e" Y8 y: z- W( {6 W
  34. Stream size                    : 457 MiB (95%)  Z) K" ~' H! A0 a  Q; w+ T7 T; }
  35. Writing library                : x264 core 158 r2984 3759fcb) c- v( V$ w' x
  36. Encoding settings              : cabac=1 / ref=1 / deblock=1:0:0 / analyse=0x3:0x3 / me=dia / subme=1 / psy=1 / psy_rd=1.00:0.00 / mixed_ref=0 / me_range=16 / chroma_me=1 / trellis=0 / 8x8dct=1 / cqm=0 / deadzone=21,11 / fast_pskip=1 / chroma_qp_offset=0 / threads=9 / lookahead_threads=1 / sliced_threads=0 / nr=0 / decimate=1 / interlaced=0 / bluray_compat=0 / constrained_intra=0 / bframes=3 / b_pyramid=2 / b_adapt=1 / b_bias=0 / direct=1 / weightb=1 / open_gop=0 / weightp=1 / keyint=250 / keyint_min=25 / scenecut=40 / intra_refresh=0 / rc=crf / mbtree=0 / crf=24.0 / qcomp=0.60 / qpmin=0 / qpmax=69 / qpstep=4 / ip_ratio=1.40 / pb_ratio=1.30 / aq=1:1.00
    ! V/ I* ?6 s, U3 Y( P
  37. Codec configuration box        : avcC; W) H+ n1 Z( W6 u- Z
  38. 8 l# X! I' h" P9 ^" q) g! Z
  39. Audio( {- _+ m) K. I' m$ n  i$ u. W. Q
  40. ID                             : 2( ?0 F) m- Z+ D& P  a
  41. Format                         : AAC LC
    % Z5 |0 b: H) L$ i/ o' B5 w% s
  42. Format/Info                    : Advanced Audio Codec Low Complexity
    % L3 g0 j6 U2 F/ u& y
  43. Codec ID                       : mp4a-40-23 m' E# E- Z0 {8 r: i
  44. Duration                       : 25 min 0 s* r& q, k. p" ?3 q
  45. Bit rate mode                  : Constant
    & r+ R' X: D! ]5 ]
  46. Bit rate                       : 129 kb/s8 Q3 r0 S4 V3 Z7 K+ d
  47. Channel(s)                     : 2 channels$ _, o6 ~& u" W: g& W
  48. Channel layout                 : L R9 C& W  w) @3 y
  49. Sampling rate                  : 44.1 kHz
    : E: j/ D4 w0 q8 Z
  50. Frame rate                     : 43.066 FPS (1024 SPF)9 A& t! |0 x* s4 r9 V
  51. Compression mode               : Lossy7 ?7 h2 K1 P0 [
  52. Stream size                    : 23.0 MiB (5%)
    ( U: Z& [: @- L: h1 E! S
  53. Default                        : Yes( o9 ]( E/ Z+ M3 i6 v/ [8 f
  54. Alternate group                : 1* S. J8 X) @2 ^3 O

  55. 6 r  V- s4 U" a+ T5 K5 q
复制代码
4 ?: c& t( ~6 ^  K
, u7 v8 x! R, d9 x$ @
请点击此处下载

请先注册会员后再进行下载

已注册会员,请先登录后下载

文件名称:《陈廷敬的为官之道》 
下载次数:13  文件大小:0 Bytes  售价:30 记录币[记录]
下载权限: 不限 月度VIP会员 以上 [购买VIP会员] [充值记录币]
★ 注意:购买后请务必刷新页面~ ★


下载帮助 - 免责申明1、本主题所有言论和图片纯属会员个人意见,与本论坛立场无关
2、本站所有主题由该帖子作者发表,该帖子作者与第一记录论坛-第1记录论坛-第壹记录论坛享有帖子相关版权
3、其他单位或个人使用、转载或引用本文时必须同时征得该帖子作者和第一记录论坛-第1记录论坛-第壹记录论坛的同意
4、帖子作者须承担一切因本文发表而直接或间接导致的民事或刑事法律责任
5、本帖部分内容转载自其它媒体,但并不代表本站赞同其观点和对其真实性负责
6、如本帖侵犯到任何版权问题,请立即告知本站,本站将及时予与删除并致以最深的歉意
7、第一记录论坛-第1记录论坛-第壹记录论坛管理员和版主有权不事先通知发贴者而删除本文
8、全站统一下载网盘为百度网盘,全站统一解压密码为 www.1jilu.cn

第一记录社区汇集了大量优秀经典纪录片,集纳国内地方台、BBC、国家地理、美国历史频道、NHK等各具特色的高清正版纪录片资源,是国内纪录片资源较为丰富的视频下载网站
您需要登录后才可以回帖 登录 | 我要注册