找回密码
 我要注册
充值说明

CCTV 《诗画中国》2022.中国.文化[MP4][2160p][央视中文][全11集]

马上注册,下载更多资源!

您需要 登录 才可以下载或查看,没有账号?我要注册

x
共计76.4GB 请准备好硬盘. j8 \+ M1 ~+ S0 j$ A; }( [" l
诗画中国 (2022).jpg
5 F6 P; [% v9 f% J3 h% H+ d. P7 D
% N% _5 Y& u4 V5 V
◎片  名 诗画中国  ]4 n2 ~; c# K0 u9 O6 y6 k6 ^
◎年  代 2022' w0 Q: ~% I/ _& H. V* r. {2 v
◎产  地 中国大陆
; o6 ~4 E' r  y. V◎类  别 真人秀9 [+ E& |  z/ l( p$ F$ n& n# @
◎语  言 汉语普通话3 L$ [8 Y$ I% w6 E  C8 S3 k
◎上映日期 2022-08-28(中国大陆)( I) H4 ]) p, \  |* e% C
◎豆瓣评分 /10 from 0 users6 V- r: K$ o% M3 ^2 n5 j1 J, `! ~
◎豆瓣链接 https://movie.douban.com/subject/36075113/
+ W/ d* x& F" m5 p$ ~! G2 [# C◎集  数 11
& \- i" p, f" e1 r◎片  长 90分钟% d9 {+ a. N1 }8 m* t
◎导  演 田梅 Mei Tian
% [4 i8 U: i, ~. N2 R/ b. |& \◎主  演 范迪安 Di-an Fan* N, A4 V8 K: j# t" C
       吴为山 Weishan Wu
  d/ |1 Z8 ^: I/ f- I. e- u7 ?       许嵩 Vae# c) v1 m/ T: J' E- L" g* ?6 j, q
       谭维维 Weiwei Tan# ?: o$ m" a& E) o, I
       吴培郡 Peijun Wu
3 i8 V' g4 q' L4 |- ~' |+ M3 n       陈秋桦 Qiuhua Chen* Z( C5 g( C& N: }

; c) A5 I3 b; ]7 i6 B# D◎简  介$ Q+ S- Y' N- ?! X: w
  大型文化节目《诗画中国》以中国经典名画作为内容载体和特定场景,与诗词、音乐、戏剧、舞蹈等艺术形式跨界融合,结合现代化科技手段、创意性舞台表达,打造文艺精品,充分展现中华历史之美、山河之美、文化之美,用当代视角解读经典作品的深厚文化内蕴,抒写中华文化的新时代精神气象。
7 k: {: s. @: k) h0 [: Z: F4 z3 ]9 h. j; W/ b& }( y$ f
6 N& |( g; v* w) U3 h
/ A8 B; D/ l  S8 t
《诗画中国》 202208281 T% _% h2 W9 x2 L0 {1 V
本期节目主要内容: 1.李光复带您走进《溪山行旅图》; 2.《溪山行旅》 表演:李光复; 3.郎朗带您走进《杂花图》卷; 4.《杂花图卷》 钢琴:郎朗; 5.吴为山带您走进《昭陵六骏图》; 6.《昭陵六骏》 中国鼓:李尚 舞蹈:陈冠华 郭亦鸣 等; 7.曹磊.谭维维带您走进《墨梅图》; 8.《以墨问梅》 演唱:谭维维 表演:曹磊; 9.任敏.王西带您走进《水图》; 10.《水图》 舞蹈:任敏 王西 陈添。 4 [; ^& j# K4 ?' ^5 Z- W# j
《诗画中国》 20220904. o& D4 p# t0 ?
本期节目主要内容: 1.樊少皇 杨德战带您走进《竹石图》轴; 2.《竹石》 武术表演:樊少皇 杨德战 古琴演奏:丁承运; 3.许嵩带您走进《江干雪霁图》; 4.《纸上雪》 演唱:许嵩; 5.郝若琦带您走进《公孙大娘舞剑图》; 6.《剑器行》 舞蹈:郝若琦; 7.胡彦斌带您走进《万壑松风图》; 8.《万壑松风》 演唱:胡彦斌 舞蹈:魏伸洋; 9.阿云嘎 廖昌永带您走进《快雪时晴书画合璧》卷; 10.《快雪时晴》 表演:廖昌永 阿云嘎。
+ t+ w0 H7 S6 k" J0 z; L《诗画中国》 20220912$ V* F, @) H$ J" `: z+ z& H
本期节目主要内容: 1.撒贝宁 任鲁豫 朱广权 尼格买提 张韬带您走进《五牛图》; 2.《五牛耕春》 动画配音:撒贝宁 任鲁豫 朱广权 尼格买提 张韬; 3.郁可唯带您走进《秋兴八景图》册; 4.《秋兴八景》 演唱:盛小云 郁可唯; 5.韩昊霖带您走进《货郎图》; 6.《奇遇货郎图》 表演:韩昊霖; 7.濮存昕带您走进《浔阳琵琶图》; 8.《琵琶行》 朗诵:濮存昕 琵琶演奏:吴玉霞 书法:濮存昕; 9.吴志华 汪明荃带您走进《江山秋色图》; 10.《江山秋色》 朗诵:汪明荃。0 C+ B+ S4 G8 ^. \8 G; M. l
《诗画中国》 20220918) v' _/ [7 J% C$ r3 Z8 j/ G
本期节目主要内容: 1.王珮瑜带您走进“清宫戏画”; 2.《戏绘三国》 表演:王珮瑜 中关村一小金帆京剧团; 3.吉克隽逸带您走进《写生蛱蝶图》; 4.《蝶》 演唱:吉克隽逸 太阳部落; 5.阮华端带您走进《雪梅双鹤图》; 6.《雪梅双鹤》 肩上芭蕾:吴正丹 魏葆华; 7.赵永庄带您走进《兽谱》之“象图”; 8.《大象来了》 表演:中国木偶艺术剧院。
+ h/ w0 M4 Z, y  r2 A' u) N7 E+ J《诗画中国》 20221030) v7 ~1 W' y5 v$ X1 |. b, V
本期节目主要内容: 1.厦门六中合唱团带您走进《落花游鱼图》; 2.《鱼戏莲叶间》 演唱:厦门六中合唱团; 3.保剑锋带您走进《出水芙蓉图》; 4.《出水芙蓉》 表演:保剑锋 舞蹈:孟庆旸; 5.王鹏带您走进《斫琴图》; 6.《斫琴赋》 古琴演奏:王鹏 表演:周帅; 7.王雪柔带您走进《牡丹二十四种图》卷; 8.《牡丹二十四种》 领舞:王雪柔 舞蹈:北京歌剧舞剧院; 9.中国交响乐团男声六重唱带您走进《长江万里图》; 10.《长江之歌》 演唱:中国交响乐团男声六重唱 钢琴:万捷旎。 . k, N7 R' i) n* `
《诗画中国》 20221106
; K! g+ P5 Y) S: A8 j" ^% `本期节目主要内容: 1.何赛飞带您走进《月曼清游图》册; 2.《踏雪寻诗》 演唱:何赛飞 姚徐依; 3.郑棋元带您走进《赤壁图》; 4.《赤壁夜游》 演员:郑棋元 王伟夫 等; 5.赵雅芝带您走进《林榭煎茶图》; 6.《林榭煎茶吟》 朗诵:赵雅芝; 7.戴佩妮带您走进《四景山水图》; 8.《四景山水》 演唱:戴佩妮; 9.奚美娟带您走进《写生海棠图》《莲池水禽图》《桂花图》; 10.《易安花颂》 朗诵:奚美娟。 ; i& ?. O: G9 Z; I; \
《诗画中国》 20221113
/ N% J2 m4 I+ u5 l% a" E+ ^本期节目主要内容: 1.娄玮带您走进《湘君湘夫人图》轴; 2.《湘君湘夫人》 表演:王念慈 李祎然; 3.李洪涛、曹骏带您走进《东庄图》册; 4.《画游东庄》 表演:李洪涛 曹骏; 5.任贤齐带您走进《黄鹤楼图》轴; 6.《黄鹤楼》 演唱:任贤齐; 7.毕彦君带您走进《寒驼残雪图》轴与《天山积雪图》轴; 8.《山中行》 表演:毕彦君; 9.凤凰传奇带您走进《清人画胤禛耕织图》册; 10.《耕织曲》 演唱:凤凰传奇; 11.冯满天、吴京安带您走进《竹林拨阮图》页; 12.《竹林拨阮》 表演:冯满天 吴京安 梁国栋。
& b. x1 D  w8 u; i% Y4 Y0 X: x《诗画中国》 202211205 k: B5 I( y; V; [
本期节目主要内容: 1.齐溪带您走进《仿杨大章画<宋院本金陵图>》卷; 2.《一梦金陵》 表演:齐溪; 3.王洛勇带您走进《李白行吟图》轴; 4.《李白行吟》 表演:王洛勇; 5.张卫健带您走进《唐风图》卷; 6.《诗经·唐风吟》 演唱:张卫健 舞蹈:苏海陆; 7.董宝厚带您走进《簪花仕女图》卷; 8.《簪花仕女》 演出单位:沈阳歌舞团; 9.沙宝亮 满江带您走进《伯牙鼓琴图》卷; 10.《高山流水》 演唱:沙宝亮 满江; 11.惠英红带您走进《杂剧<打花鼓>图》页; 12.《礼仪服章》 表演:惠英红 董艺 刘洋洋。
+ I9 C" a+ l& g! R' [" W7 `' @0 P' I《诗画中国》 20221127; X6 @% s- p7 ]4 d2 U
本期节目主要内容: 1.谭咏麟 胡夏带您走进《潇湘竹石图》卷; 2.《潇湘竹石》 演唱:谭咏麟 胡夏; 3.娄玮带您走进《白云红树图》轴; 4.《白云红树》 主舞:谢欣 舞蹈:李家彤等; 5.朱晗带您走进《雁荡山图》卷; 6.《风起雁荡》 琵琶:方锦龙 舞蹈:朱晗 黄晶; 7.刘万鸣带您走进《捣练图》卷; 8.《月下捣练》 主演:黄路霏 表演:西安演艺集团·西安歌舞剧院。
& b! }" f. d$ j《诗画中国》 20221211
+ Y5 v, }8 ^1 P) s9 b! Q7 b本期节目主要内容: 1.刘涛带您走进《滕王阁图》页; 2.《滕王阁》 演唱:刘涛; 3.王斑带您走进《漉酒图》轴; 4.《葛巾漉酒》 表演:王斑 李京旭 方洋飞; 5.董宝石带您走进《京师生春诗意图》轴; 6.《京师生春》 表演:董宝石 莲花 早安; 7.张傲月带您走进《渔父图》轴; 8.《渔父》 舞蹈:张傲月; 9.张晓龙 薛佳凝等带您走进《游春图》卷; 10.《游春图》 表演:张晓龙 薛佳凝 等; 11.郭达带您走进《人骑图》卷; 12.《人骑游》 表演:郭达。( q8 d: p2 ?9 p) b! P  P
《诗画中国》 202212189 W8 I  L- g/ `
本期节目主要内容: 1.萧敬腾带您走进《山海百灵图》卷; 2.《山海百灵》 表演:萧敬腾; 3.瞿弦和 李响带您走进《柴门掩雪图》轴; 4.《柴门掩雪》 表演:瞿弦和 李响; 5.靳尚谊带您走进莫高窟第112窟南壁 反弹琵琶(中唐); 6.《遇见敦煌》 人声:金天; 7.水木年华带您走进《蓬莱仙境图》轴; 8.《海市》 演唱:水木年华; 9.吴彤带您走进《陶渊明诗意图》册; 10.《饮酒·其五》 演唱:吴彤。
' ?+ M0 ~0 a8 C$ D9 `2 v- g& ]- M5 n  u9 ]5 r2 W8 @

+ c! V2 x' O+ Z' I) V! y/ U
  1.   B6 D! @8 Y0 S& `8 H3 B' O
  2. General
    ) J( P5 X7 u# m1 _
  3. Complete name                  : 诗画中国 第1集 4K.mp4) Y, e! q1 x$ p9 D0 r9 v' v( U
  4. Format                         : MPEG-4
      ^& ^- E$ @/ M
  5. Format profile                 : Base Media; h. [4 W# m4 P/ h) l. T
  6. Codec ID                       : isom (isom/iso2/avc1/mp41)
    ) o' t4 k) s( `% d% k4 K
  7. File size                      : 8.96 GiB
    2 J0 A# t7 Y1 z" h, A/ A3 F1 F2 T
  8. Duration                       : 1 h 30 min
    # @" V: e% L5 u
  9. Overall bit rate               : 14.2 Mb/s6 }8 \5 ~. Y9 ]
  10. Writing application            : Lavf58.33.100
    . N4 o- L: x  n  i$ D* ?

  11. 5 M. s8 d; I# i4 ?0 E$ u
  12. Video6 r  c6 g  b6 s5 z5 X
  13. ID                             : 19 i! p4 @% m1 @; @2 l3 c
  14. Format                         : AVC
    5 B7 z$ E# q# P9 B$ z2 c3 t
  15. Format/Info                    : Advanced Video Codec5 p" V& p  l# u; b* b. }, U8 g
  16. Format profile                 : High@L5.10 O, i0 K4 ~* ^. g/ L2 S4 S
  17. Format settings                : CABAC / 4 Ref Frames0 c4 _1 d. X, w
  18. Format settings, CABAC         : Yes" }/ o; m! f/ S5 E4 ~9 R
  19. Format settings, Reference fra : 4 frames
    : Y* U: G5 u0 l1 a. w+ c$ }/ P3 |5 {
  20. Codec ID                       : avc1/ C2 ~4 T# j8 Q9 M
  21. Codec ID/Info                  : Advanced Video Coding6 K& b7 J( A4 J$ M& P$ |
  22. Duration                       : 1 h 30 min/ Z- t* L+ c8 U
  23. Bit rate                       : 14.0 Mb/s( I3 A8 M! \/ b& Y6 {
  24. Width                          : 3 840 pixels* B, o5 b% j1 k0 c* L# n& t3 R
  25. Height                         : 2 160 pixels+ |4 v1 ^/ Y+ Q% x
  26. Display aspect ratio           : 16:9$ _7 {. |5 P) \& y0 U
  27. Frame rate mode                : Constant
    / J0 W3 E: u' C# r7 u
  28. Frame rate                     : 25.000 FPS
    : i" C% [! k8 A6 J8 J" n
  29. Color space                    : YUV
    % _/ ]5 Z# O; U  K% _: U
  30. Chroma subsampling             : 4:2:0, F) B, ?. W! Q! y* A7 X( K6 y
  31. Bit depth                      : 8 bits
    # i% ]/ c# E- t/ Z  ^
  32. Scan type                      : Progressive# [) B; O' o4 O- E! M& I
  33. Bits/(Pixel*Frame)             : 0.068
    ' x' ~2 m  }" G: _
  34. Stream size                    : 8.87 GiB (99%)
    1 }4 D' z: e9 c$ }* J
  35. Writing library                : x264 core 158 r2984 3759fcb
    ; n. _" ^# i' F$ [6 \  q
  36. Encoding settings              : cabac=1 / ref=1 / deblock=1:0:0 / analyse=0x3:0x3 / me=dia / subme=1 / psy=1 / psy_rd=1.00:0.00 / mixed_ref=0 / me_range=16 / chroma_me=1 / trellis=0 / 8x8dct=1 / cqm=0 / deadzone=21,11 / fast_pskip=1 / chroma_qp_offset=0 / threads=9 / lookahead_threads=1 / sliced_threads=0 / nr=0 / decimate=1 / interlaced=0 / bluray_compat=0 / constrained_intra=0 / bframes=3 / b_pyramid=2 / b_adapt=1 / b_bias=0 / direct=1 / weightb=1 / open_gop=0 / weightp=1 / keyint=250 / keyint_min=25 / scenecut=40 / intra_refresh=0 / rc=crf / mbtree=0 / crf=24.0 / qcomp=0.60 / qpmin=0 / qpmax=69 / qpstep=4 / ip_ratio=1.40 / pb_ratio=1.30 / aq=1:1.00
    8 ?9 l0 i9 w8 Z5 }* O. ~, p6 w8 i( V
  37. Codec configuration box        : avcC
    ' i7 n- K6 ]9 H4 W
  38. ; F- V9 h! b- d5 }! N
  39. Audio0 C, q0 f9 \" P1 t( W
  40. ID                             : 2
    $ R4 F4 W& e/ F/ \0 k( {" d* }0 [/ V: g
  41. Format                         : AAC LC  x5 z4 _* e! \! _4 X# w% r
  42. Format/Info                    : Advanced Audio Codec Low Complexity" O" F+ f* B: z
  43. Codec ID                       : mp4a-40-2& a7 I4 Z* r7 K  Q( ?8 i2 R0 a
  44. Duration                       : 1 h 30 min
    + U( B5 e$ P3 e; Z
  45. Bit rate mode                  : Constant! Z0 o) H2 L6 {* Y  i
  46. Bit rate                       : 128 kb/s
    : W7 |$ M) b, S+ g& {
  47. Channel(s)                     : 2 channels
    3 m! r5 T5 y8 k3 J) _8 r6 p6 N
  48. Channel layout                 : L R$ h  v  U6 z! ^  T6 b& `9 U
  49. Sampling rate                  : 48.0 kHz
    2 o6 g% C' ~: h7 `  a
  50. Frame rate                     : 46.875 FPS (1024 SPF)
    " R% }, S( `/ M6 g, |2 a  H4 M+ h& @
  51. Compression mode               : Lossy
    * \9 }5 k) b$ u6 O* n9 f, e
  52. Stream size                    : 83.0 MiB (1%), ]$ H( }/ A0 J/ }
  53. Default                        : Yes! f* v$ S8 f$ N( [$ A0 w, u
  54. Alternate group                : 15 V1 `: s3 X1 ]1 h3 C! l
复制代码
. K( `+ [; \) S2 X

8 ]# d# K. j" ~3 [. Q
请点击此处下载

请先注册会员后再进行下载

已注册会员,请先登录后下载

文件名称:《诗画中国》 
下载次数:15  文件大小:0 Bytes  售价:90 记录币[记录]
下载权限: 不限 月度VIP会员 以上 [购买VIP会员] [充值记录币]
★ 注意:购买后请务必刷新页面~ ★


下载帮助 - 免责申明1、本主题所有言论和图片纯属会员个人意见,与本论坛立场无关
2、本站所有主题由该帖子作者发表,该帖子作者与第一记录论坛-第1记录论坛-第壹记录论坛享有帖子相关版权
3、其他单位或个人使用、转载或引用本文时必须同时征得该帖子作者和第一记录论坛-第1记录论坛-第壹记录论坛的同意
4、帖子作者须承担一切因本文发表而直接或间接导致的民事或刑事法律责任
5、本帖部分内容转载自其它媒体,但并不代表本站赞同其观点和对其真实性负责
6、如本帖侵犯到任何版权问题,请立即告知本站,本站将及时予与删除并致以最深的歉意
7、第一记录论坛-第1记录论坛-第壹记录论坛管理员和版主有权不事先通知发贴者而删除本文
8、全站统一下载网盘为百度网盘,全站统一解压密码为 www.1jilu.cn

第一记录社区汇集了大量优秀经典纪录片,集纳国内地方台、BBC、国家地理、美国历史频道、NHK等各具特色的高清正版纪录片资源,是国内纪录片资源较为丰富的视频下载网站

大神点评(1)

coronakun 2023-11-14 00:19:23 显示全部楼层
感谢感谢分享
第一记录社区汇集了大量优秀经典纪录片,集纳国内地方台、BBC、国家地理、美国历史频道、NHK等各具特色的高清正版纪录片资源,是国内纪录片资源较为丰富的视频下载网站
您需要登录后才可以回帖 登录 | 我要注册