找回密码
 我要注册
点我去除广告

CCTV 《中国微名片·世界遗产》2021.中国.人文[TS][2160p][全15集]

马上注册,下载更多资源!

您需要 登录 才可以下载或查看,没有账号?我要注册

x
中国微名片·世界遗产 (2021).jpg
! ^, E  [1 C! [# @! d2 H  h
. f( m9 \- f/ R5 g5 d  ?1 l◎片  名 中国微名片·世界遗产
2 j' h; X6 b8 t1 {◎年  代 2021
; d) D- l4 Q0 s9 ]- D& b9 n* x◎产  地 中国大陆
9 F2 k' t& k. \◎语  言 汉语普通话
6 j# b& T' i/ s6 j  T◎上映日期 2021-07-23(中国大陆)
+ O$ y' _& S0 r* F, N5 s" a◎豆瓣评分 /10 from 0 users
$ p" K0 w* @; Z◎豆瓣链接 https://douban.com/subject/35559202/
# H5 Q6 E% Z. p◎集  数 15
+ Q# R7 g1 u7 `2 }; T" n◎片  长 5分钟8 R4 x% u5 m% S% e; g
◎导  演 刘鸿彦 Hongyan Liu / 钱钰 Yu Qian / 杜兴 Xing Du / 王晓雷 XIAOLEI WANG / 余源伟 Leon Yu; Q6 ]# C1 m" R
◎主  演 任亚明 Yaming Ren
& v7 F1 {: K! t3 o
$ {+ G  b3 f& L; w◎简  介
7 S# y0 s) f: ~* j  《中国微名片·世界遗产》是我们对于世界遗产的缩微表达。5分钟的体量,给您快捷游览遗产地的体验,不拖沓、不造作,更留足了观看者的遐想余地,一张“微名片”,带观众“云”游四海。
9 |) [  i/ L# l+ O: s  中国共有世界遗产56处。我们没理由不去诉说五千年中华文明的绚烂、神州大地的华美,也没理由不去展现数亿年地球演化的大观、生命进化的奇迹。时光和文明在大地上刻画下一处处内涵丰富的宝藏之地,但我们尽量在5分钟的短暂时间内,带给您更多的沉浸感和知识点。
4 a! X/ V8 R; n  作为第一季,我们从全国56处世界遗产中,精选出15处先期制作,它们包括:北京皇家祭坛——天坛、云冈石窟、左江花山岩画文化景观、苏州古典园林、杭州西湖文化景观、澄江化石地、红河哈尼梯田文化景观、湖北神农架、鼓浪屿:历史国际社区、良渚古城遗址、大足石刻、云南三江并流保护区、福建土楼、四川大熊猫栖息地、周口店北京人遗址。9 Q  j% b* N. W
  5 w5 x- k4 c9 p7 _6 p7 X! O
◎简  介
0 m  i! Z, O) L7 w8 f$ x

本片以每集5分钟的微缩体量、国际化的表达方式、带入性的视角、情感化的叙述、最具代表性的文化自然场景和打动人心的细节呈现遗产地的无穷魅力,打造出一套“中国微名片”。本系列第一季15集,呈现的遗产地包括:天坛,云冈石窟,左江花山岩画文化景观,苏州古典园林,杭州西湖文化景观,澄江化石遗址,红河哈尼梯田文化景观,神农架,鼓浪屿历史国际社区,良渚古城遗址,重庆大足石刻,云南三江并流保护区,福建土楼,四川大熊猫栖息地—卧龙、四姑娘山和夹金山,周口店北京人遗址。

, \/ S5 O1 m: k+ {9 u
《中国微名片·世界遗产》(第一季)
; V) |+ q/ s3 y4 J+ \9 L2 e. @北京皇家祭坛——天坛/湖北神农架/周口店北京人遗址
# ^0 x3 w& R$ `4 U& \% M: _* i; b9 B
本集主要内容: 天坛是保存完好的中国古代皇家坛庙建筑群,无论是整体布局还是单一建筑,都反映出中国古代宇宙观中核心的天地关系(即人界和神界之间的关系)。同时,天坛作为封建王朝合法性的象征,也展现了古代帝王在天地关系中所起的重要作用。- w$ H* S) b4 c2 s% @+ l! ?! P

0 v( z7 ^- G0 k8 I- U+ I《中国微名片·世界遗产》(第一季)0 r$ {, p* A( ^# K) v0 S
云冈石窟/苏州古典园林/左江花山岩画文化景观' |' i8 S! _( Q6 G
本集主要内容: 云冈石窟,古称武州山大石窟寺,开凿于北魏建都平城(今山西大同)时代,距今已有1500多年历史。2019年,研究人员发现了疑似工匠的私刻留名。1500年后的今天,现代的人们通过数字化的手段,将佛陀们那慈悲的美永远定格在了时光里。# n/ g) n! A& l
# h2 S0 I/ s5 h3 Z
《中国微名片·世界遗产》(第一季)  U; Q. M/ \4 s; i  U; j' i
鼓浪屿:历史国际社区/良渚古城遗址/澄江化石地
& M6 p# p: B8 F+ x2 u
本集主要内容: 鼓浪屿,被称作“音乐之岛”。鼓浪屿式的幸福,是穿行于万国建筑之林,是沐浴在东西方音乐的和声之中。登临鼓浪屿,聆听岛上最优美的旋律。9 B7 B4 w, @  w9 f1 n; k
6 @8 f9 B+ b0 N: e4 a- A2 Y4 @
《中国微名片·世界遗产》(第一季)* a1 ]3 s6 H( M( V/ L' U
云南三江并流保护区/四川大熊猫栖息地/红河哈尼梯田文化景观* X* J2 d4 ], B$ X4 ^
本集主要内容: 三江并流保护区位于云南省西北部,由八个片区组成,面积17000平方公里。金沙江、澜沧江和怒江三条大江在这一区域的高山峡谷中并行奔流,形成了“三江并流”的世界地理奇观。这一区域具有极为显著的景观多样性和生物多样性,是满足全部世界自然遗产评选标准的自然遗产地。4 b  ^0 e2 h- u' D- G

* a( g! ]: p: o, s. C+ J  Q《中国微名片·世界遗产》(第一季)  b7 d8 N' Q0 X' f. [+ ]( H; _
杭州西湖文化景观/大足石刻/福建土楼
4 D5 S1 X9 J4 S$ F
本集主要内容: “西湖景观”是中国历代文化精英秉承“天人合一”“寄情山水”的中国山水美学理论下景观设计的杰出典范,对9世纪以来的中国、日本、朝鲜半岛等东亚地区的景观设计和造园艺术均产生过明显的影响。8 y8 B& b, @, ^* N' z2 Y$ \
- L: ~6 n+ {' u; y6 o3 y+ J# [' a

2 b1 Z+ b. t* L1 t
  1. 9 p9 S, d/ x" T6 O2 \
  2. General! i9 p# Q/ L, I
  3. Complete name                  :01 北京皇家祭坛——天坛.mp4
    % V3 o. Q4 ?$ S' n
  4. Format                         : MPEG-4
    $ J" [  c$ J  |/ ?
  5. Format profile                 : Base Media
    1 x  K0 @# l, V! V, L
  6. Codec ID                       : isom (isom/iso2/avc1/mp41)
    1 x. c6 t! Q0 J6 Y2 q5 j1 e
  7. File size                      : 416 MiB: y$ @# P8 t  Z9 V. C. Z
  8. Duration                       : 4 min 49 s
    ( U' p4 z  u! @6 y, J- z/ W
  9. Overall bit rate mode          : Variable7 H/ m- A' _" p; `
  10. Overall bit rate               : 12.0 Mb/s1 \- I) A- p: \# d( P
  11. Description                    : Packed by Bilibili XCoder v2.0.2- K5 V4 Q7 R/ k; k3 B% ?) V
  12. Writing application            : Lavf58.27.103
    # l3 @, x" v- f0 I& R' W' P9 [" f9 T; W
  13. 3 }) u3 r! `2 _
  14. Video
    4 Y( j: N3 X6 W+ W% L# ~2 k+ P
  15. ID                             : 1
    ( ]6 c* @3 c6 l: Q( s* o
  16. Format                         : AVC1 V1 v0 `$ @- N! t* G8 l
  17. Format/Info                    : Advanced Video Codec/ \: K, t9 o6 G3 J$ `; Q
  18. Format profile                 : High@L5.29 o! n- F" ?; ^% ]6 k6 r
  19. Format settings                : CABAC / 4 Ref Frames) Z" n' Q5 }$ s& K$ b5 H6 n
  20. Format settings, CABAC         : Yes- f; X' A! s3 c& u$ L- G! g
  21. Format settings, Reference fra : 4 frames, a- v% g  m9 k( h7 Z( i, ~
  22. Codec ID                       : avc16 {5 {+ j8 D1 N/ i3 X. T
  23. Codec ID/Info                  : Advanced Video Coding
    # C" `! i3 {# B8 l
  24. Duration                       : 4 min 49 s
    6 U, K; D7 |% L7 L3 d5 Y# U
  25. Bit rate mode                  : Variable
    ) j/ a6 p7 ]+ B# @/ b4 h# k
  26. Bit rate                       : 11.7 Mb/s5 j0 d7 ]( x7 [: [1 Q
  27. Maximum bit rate               : 30.0 Mb/s
    3 a- h* ?2 F' {( y
  28. Width                          : 3 840 pixels1 p0 y6 P) o2 _- L% V/ K" r3 T5 I
  29. Height                         : 2 160 pixels0 P/ I! I) y" z) a, O. q+ |
  30. Display aspect ratio           : 16:9/ _# v& U) F0 l* Z' k3 x8 `2 A
  31. Frame rate mode                : Constant
    & k2 G4 M" h0 U0 z! V8 W, \
  32. Frame rate                     : 50.000 FPS4 e4 ?2 p7 A5 d
  33. Color space                    : YUV
    ( o  ^0 R3 ]5 A$ b( A$ W3 p# }
  34. Chroma subsampling             : 4:2:0( b! v% E) a7 V5 y- I& P
  35. Bit depth                      : 8 bits, g1 R' H: d9 q' o
  36. Scan type                      : Progressive! S: H& @; o- B2 i& Q' Q
  37. Bits/(Pixel*Frame)             : 0.028
    . M9 v: I5 g0 o# Y8 l
  38. Stream size                    : 404 MiB (97%)
      H& q4 ~& }6 i; l0 T/ c) V, ]
  39. Color range                    : Limited" K' D) c1 E. d1 x
  40. Color primaries                : BT.709
    $ L! I: }# ]4 m' K" R
  41. Transfer characteristics       : BT.709
    9 g9 ]- ]( S0 F2 m( z+ q
  42. Matrix coefficients            : BT.709
    8 V) T; D4 M, {, p" S
  43. Codec configuration box        : avcC
    , B, F9 ~3 o# y( U3 q; `7 y9 g

  44. ; T6 V0 _. g3 N
  45. Audio
    " Q& C# T, Q  C" M0 r$ g. `$ Y
  46. ID                             : 2: Y7 i+ r( h, [7 m
  47. Format                         : MPEG Audio! ]0 H/ Q$ m9 L' v$ X& m6 G
  48. Format version                 : Version 1
    : p$ u# V2 Q* S% f7 s# U
  49. Format profile                 : Layer 3# e2 u2 v/ Y* P0 f, `
  50. Format settings                : Joint stereo / MS Stereo% U% R  j- p9 W& P* k
  51. Codec ID                       : mp4a-6B% Y& P" I; T0 K0 P$ S* N
  52. Duration                       : 4 min 49 s8 y- @, M) w. s( n) ?5 I0 C
  53. Duration_LastFrame             : -4 ms# a1 ~" _: d$ b! D
  54. Bit rate mode                  : Constant
    6 _8 n# A7 [0 n+ X# f) s
  55. Bit rate                       : 320 kb/s
    $ L, a: M; l" Y
  56. Channel(s)                     : 2 channels
    2 F8 o, n& `* [
  57. Sampling rate                  : 48.0 kHz1 u) I" _: J$ |! @) x
  58. Compression mode               : Lossy
    0 }8 a- `% j6 C  k  d- f
  59. Stream size                    : 11.0 MiB (3%)$ ]2 ^- ]) u- R- C
  60. Writing library                : LAME3.100ªªªªªªª€5 x; f3 t3 ^7 ^+ D  Z0 y+ P
  61. Default                        : Yes
    5 K3 P/ W. ]: L  m6 c
  62. Alternate group                : 1
      E7 }4 [+ }- a+ i$ O+ J
复制代码

" O  t4 A  m. v& X
# f5 e- i. n! P
请点击此处下载

请先注册会员后再进行下载

已注册会员,请先登录后下载

文件名称:《中国微名片·世界遗产》 
下载次数:15  文件大小:0 Bytes  售价:60 记录币[记录]
下载权限: 不限 月度VIP会员 以上 [购买VIP会员] [充值记录币]
★ 注意:购买后请务必刷新页面~ ★


下载帮助 - 免责申明1、本主题所有言论和图片纯属会员个人意见,与本论坛立场无关
2、本站所有主题由该帖子作者发表,该帖子作者与第一记录论坛-第1记录论坛-第壹记录论坛享有帖子相关版权
3、其他单位或个人使用、转载或引用本文时必须同时征得该帖子作者和第一记录论坛-第1记录论坛-第壹记录论坛的同意
4、帖子作者须承担一切因本文发表而直接或间接导致的民事或刑事法律责任
5、本帖部分内容转载自其它媒体,但并不代表本站赞同其观点和对其真实性负责
6、如本帖侵犯到任何版权问题,请立即告知本站,本站将及时予与删除并致以最深的歉意
7、第一记录论坛-第1记录论坛-第壹记录论坛管理员和版主有权不事先通知发贴者而删除本文
8、全站统一下载网盘为百度网盘,全站统一解压密码为 www.1jilu.cn

第一记录社区汇集了大量优秀经典纪录片,集纳国内地方台、BBC、国家地理、美国历史频道、NHK等各具特色的高清正版纪录片资源,是国内纪录片资源较为丰富的视频下载网站
您需要登录后才可以回帖 登录 | 我要注册