找回密码
 我要注册
充值说明

CCTV 《国家公园·万物共生之境》2023.中国.自然[MP4][2160p][央视中文][全5集]

马上注册,下载更多资源!

您需要 登录 才可以下载或查看,没有账号?我要注册

x
国家公园:万物共生之境 2023.jpg ( a$ _# \$ m6 R1 ^+ J8 A1 g
◎片  名 国家公园·万物共生之境+ U8 h+ W4 O& V/ w  z
◎年  代 2023
/ r+ P6 F! e- c7 B+ Y/ e2 P◎产  地 中国大陆
/ U" j% X5 i& C/ n, L' @◎类  别 纪录片 / 自然4 W+ W" }/ k* A% a
◎语  言 汉语普通话
8 t; A* W3 a( K◎上映日期 2023-08-07(中国大陆)% y4 q1 l3 v$ l0 [
◎豆瓣评分 /10 from 0 users
0 v$ R& L1 Y" m/ j" {* c; D" K◎豆瓣链接 https://douban.com/subject/36514575/3 @" X% I, S% i! T  h/ T* G
◎集  数 5) T0 }: A; Y) N6 u
◎片  长 50分钟% @4 @+ i1 j0 `2 b  s+ W6 r" k! n& x. a1 y
◎导  演 陈磊 Lei Chen / 朱军 Jun Zhu
2 {8 U, q) M- q$ X- u
& u; q6 K# ~7 N◎简  介
' X  A$ y2 r+ y- _1 {  P: A3 e' o/ t" Y9 n2 j; k
  纪录片以中国第一批正式设立的5座国家公园和若干国家公园候选区为题材,以中国地形三大阶梯为地理线索,用自然视角、东方美学、国际语言,全景呈现中国国家公园生机勃勃的景象。节目讲述了在国家公园生态系统下,雪豹、东北虎、大熊猫、朱鹮、金丝猴、藏羚羊等国宝级明星动物与人类相伴同行,共同再造平衡与和谐的故事。节目通过生动的自然故事,阐述了在人与自然和谐共生的中国式现代化进程中所凝聚的绿色发展理念。- \9 m; r" V" ], ]7 K

+ F6 J$ u8 n7 ?7 a5 a6 \《国家公园——万物共生之境》 第1集 荒原新生# S5 q, b) D6 }1 o; i
本集主要内容: 四千多只母藏羚羊跨越千里,只为迎接新生命的诞生;雪豹妈妈带着孩子在峭壁上边“巡视”领地,小雪豹笨拙却顽强地学习着本领;高原上鼠兔和雪雀结成了同盟……这些生动诙谐的动物故事,都发生在中国国家公园及中国国家公园候选区。
$ Q1 W+ P( X+ k8 p《国家公园——万物共生之境》 第2集 相伴同行
; G- E0 `* c8 I" p
本集主要内容: 在国家公园里,大熊猫的数量自二十世纪六十年代以来几乎增加了一倍,不仅仅是熊猫,人们对这里的每一种动物都倾注了无比的关爱。动物保护的意义,不仅仅在于维系我们脆弱的生态系统,更为珍贵的是重建人与动物之间的和谐与信任。相伴同行,我们才不是这个星球上最孤独的生命。4 t' q) C. p3 d' E0 D
《国家公园——万物共生之境》 第3集 生命交响( M0 Y/ X' ^0 g& D1 e8 X* X
本集主要内容: 喜马拉雅山脉的隆起改变了东亚的气候,相对于世界同纬度地区荒漠草原等地貌,中国的北纬三十度沿线呈现出截然不同的自然景观。湖北神农架水汽充沛、丛林繁茂,被誉为北纬三十度的绿色奇迹。9 N! I3 n5 j5 u4 J
《国家公园——万物共生之境》 第4集 回归之路
- i8 Z8 o; d2 y& Q" \" y
本集主要内容: 如今,中国是全球森林资源增长最多、人工造林面积最大的国家,过去十年,中国为全球贡献了四分之一的新增森林面积,中国国家公园体系呵护着多样的森林生态系统,那些曾经离开的动物们正在重新回到它们的家园,下一个春天将更加绚丽多彩、生机盎然。
9 F3 ^6 t# Y0 Y# W《国家公园——万物共生之境》 第5集 万物生息
! _& T5 }% Z5 i, |6 ]1 ?0 m/ W4 I: v. G
本集主要内容: 中国南部海南岛的雨林深处,每天清晨都能够听到悠长的鸣啼,它们是这个星球上最稀有的灵长类动物——海南长臂猿。长臂猿拥有灵长类动物中最长的手臂,臂长甚至可以达到腿长的两倍。现在,长臂猿的栖息地已经退缩至云南、广西、海南的原始森林中,人们在做最大的努力保护它们仅存的家园。
9 C8 n/ q9 v6 D8 F% x2 i2 z' Y4 ~

  1. 6 F9 |! f2 Y# T9 ?3 C$ ~- t0 |
  2. General6 t$ @! k& b, @/ |( k, }
  3. Complete name                  :第1集 荒原新生.mp4
    # d7 s9 B- t1 o& q4 {6 k. K
  4. Format                         : MPEG-42 U8 J1 v# }3 B9 i- l+ d
  5. Format profile                 : Base Media. h6 ~+ Q+ o1 r  o) C
  6. Codec ID                       : isom (isom/iso2/avc1/mp41)
    1 I; f) O0 M: M3 ]6 \' q: T9 F
  7. File size                      : 3.71 GiB
    , M  i# c7 O3 h
  8. Duration                       : 49 min 59 s
    8 H. d# B) h1 d# r1 Y
  9. Overall bit rate mode          : Variable% y- p, b1 v  B8 ^! m0 o3 H7 W3 ~
  10. Overall bit rate               : 10.6 Mb/s4 E8 ?/ `" _* w' i! H5 a2 G
  11. Description                    : Packed by Bilibili XCoder v2.0.2
    1 `) e8 G. u7 ^  E' Z1 u
  12. Writing application            : Lavf58.27.103) t+ H( w7 b, ~) g! p

  13. 7 |' q) ?3 Y3 F7 h
  14. Video
    2 a' ?3 L& h- U2 e
  15. ID                             : 1$ C+ e# h/ b' |& K
  16. Format                         : AVC7 z$ r+ F4 y3 R- B; Y) O( F
  17. Format/Info                    : Advanced Video Codec
    * T/ e% k4 v1 t# k. C
  18. Format profile                 : High@L5.2
    ; ?0 W0 u5 c+ ]* O/ B" X- O. y
  19. Format settings                : CABAC / 4 Ref Frames
    + ^6 E1 N7 v1 C2 ?" c2 J- K
  20. Format settings, CABAC         : Yes# S( B# d( O: l- O0 o
  21. Format settings, Reference fra : 4 frames
    * m2 w! t/ Q( G7 e  y" W3 V* U  n
  22. Codec ID                       : avc1! j+ V' _* l/ ?7 Z& i
  23. Codec ID/Info                  : Advanced Video Coding
    : T& Y. u' `4 o# ~9 S) Z
  24. Duration                       : 49 min 59 s
    & N# m/ e: e* W, c8 }$ \
  25. Bit rate mode                  : Variable
    0 O% K# ?4 t8 P" [; s5 [/ z
  26. Bit rate                       : 10.3 Mb/s6 _0 k) H, I$ t: t, I
  27. Maximum bit rate               : 30.0 Mb/s
    : j5 d3 C/ d9 X/ p8 o
  28. Width                          : 3 840 pixels
    + V8 p! L$ A+ f/ ^" m- e" M) B5 Q
  29. Height                         : 2 160 pixels4 d" f& Y: n3 Y$ @+ F* K
  30. Display aspect ratio           : 16:9
    $ u8 _5 {8 h; }6 t& F8 b: [4 `9 K
  31. Frame rate mode                : Constant$ }/ F4 U' f4 v' w
  32. Frame rate                     : 50.000 FPS
    4 w0 D3 |$ u: S: B1 F
  33. Color space                    : YUV% ?) s9 T" S0 U7 T. o6 s& c& f
  34. Chroma subsampling             : 4:2:0& S* j0 t4 C; i: ^) h
  35. Bit depth                      : 8 bits
    8 H: t- [, i9 F9 N3 g
  36. Scan type                      : Progressive3 \" k$ Z# M: i4 V( o) x9 z* R( L
  37. Bits/(Pixel*Frame)             : 0.025* r' i2 }* `1 ~  h- b/ @
  38. Stream size                    : 3.59 GiB (97%)
    5 X0 X7 k: C3 u+ l0 }. Q2 x
  39. Color range                    : Limited& V, r3 Z) e5 ?0 h
  40. Color primaries                : BT.709. ~. Z  b* T& h. m9 ]0 ^; B( X
  41. Transfer characteristics       : BT.7097 W  D; x8 y1 d+ Z0 L
  42. Matrix coefficients            : BT.709: d! w# B* O, t2 J1 f+ d
  43. Codec configuration box        : avcC
    ( u) t" F; M3 Z8 B% @# ?9 R

  44. ) D$ N+ y9 `3 d( U! S% y
  45. Audio# I& g$ N) u3 U, p4 ]+ Z  n2 N
  46. ID                             : 2
    4 p! p* s, }4 ?9 Z2 D9 @! V5 h6 I
  47. Format                         : MPEG Audio% I. F3 ~7 \- s1 ]+ z
  48. Format version                 : Version 1- E* z) G5 S- l* {5 Z; J/ }
  49. Format profile                 : Layer 3
    8 ~. w6 R0 C2 u3 r. a3 |; e. s8 }
  50. Format settings                : Joint stereo / MS Stereo+ A" X" s) J/ ~1 v' E3 W3 k" D
  51. Codec ID                       : mp4a-6B
    7 v( V$ U$ p; B
  52. Duration                       : 49 min 59 s9 ~! I* i) A& g$ S. ]9 z1 R
  53. Duration_LastFrame             : -14 ms
    ) r3 o' ~5 G& N  y* u
  54. Bit rate mode                  : Constant! m, O2 }0 W7 s2 h3 t% G
  55. Bit rate                       : 320 kb/s, f- T, `" s8 p, w; m" s
  56. Channel(s)                     : 2 channels
    1 D5 P) ^$ ~7 V- ]: C
  57. Sampling rate                  : 48.0 kHz
    $ e2 W" Y( g) e  c! e" p
  58. Compression mode               : Lossy( g, d' k1 [; @8 {( x. P
  59. Stream size                    : 114 MiB (3%)5 k. I4 d1 d7 g6 R
  60. Writing library                : LAMEUUU0IÓN 6ðˆ×
    5 ]; h0 T- J" ~) o. D+ G4 F. k3 }3 R
  61. Default                        : Yes% ]5 F! M  x- O$ t' K, f
  62. Alternate group                : 1. X! @+ o9 x( o
  63. 3 W8 o! w9 @. e2 p! y+ C7 F2 P
  64. ! H! c+ \+ L$ Y) j3 n0 ~! a/ Y
复制代码
% F8 n# [+ A' `
& m) ?; ~: c7 c! c! w" p
请点击此处下载

请先注册会员后再进行下载

已注册会员,请先登录后下载

文件名称:《国家公园·万物共生之境》 
下载次数:15  文件大小:0 Bytes  售价:30 记录币[记录]
下载权限: 不限 月度VIP会员 以上 [购买VIP会员] [充值记录币]
★ 注意:购买后请务必刷新页面~ ★


下载帮助 - 免责申明1、本主题所有言论和图片纯属会员个人意见,与本论坛立场无关
2、本站所有主题由该帖子作者发表,该帖子作者与第一记录论坛-第1记录论坛-第壹记录论坛享有帖子相关版权
3、其他单位或个人使用、转载或引用本文时必须同时征得该帖子作者和第一记录论坛-第1记录论坛-第壹记录论坛的同意
4、帖子作者须承担一切因本文发表而直接或间接导致的民事或刑事法律责任
5、本帖部分内容转载自其它媒体,但并不代表本站赞同其观点和对其真实性负责
6、如本帖侵犯到任何版权问题,请立即告知本站,本站将及时予与删除并致以最深的歉意
7、第一记录论坛-第1记录论坛-第壹记录论坛管理员和版主有权不事先通知发贴者而删除本文
8、全站统一下载网盘为百度网盘,全站统一解压密码为 www.1jilu.cn

第一记录社区汇集了大量优秀经典纪录片,集纳国内地方台、BBC、国家地理、美国历史频道、NHK等各具特色的高清正版纪录片资源,是国内纪录片资源较为丰富的视频下载网站
您需要登录后才可以回帖 登录 | 我要注册