找回密码
 我要注册
点我去除广告

独立纪录片 《人间有味山河鲜 第二季》2023.中国.美食[MP4][2160p][国语中字][全5集]

马上注册,下载更多资源!

您需要 登录 才可以下载或查看,没有账号?我要注册

x

/ x) X) q9 P$ s$ a4 E! f 人间有味山河鲜 第二季 (2023).jpg 4 O8 @; \- @+ p/ k# D

& N" D  Y2 \% @" ]6 I/ a  e◎片  名 人间有味山河鲜 第二季4 K0 M; R- g6 I1 Y8 l0 S3 ?
◎年  代 2023
. v/ ?  J5 H4 R7 }1 i% Y, `◎产  地 中国大陆
) `& e- E  e& S5 o1 ]" O  e) ?◎类  别 纪录片7 l- ~% O) C1 X4 g
◎语  言 汉语普通话
3 x/ Z8 y1 y8 ^7 O◎上映日期 2023-09-29(中国大陆)
+ v1 x" d& \; E% ^" X$ t6 h◎豆瓣评分 /10 from 0 users
' S1 w; E' |/ G" T! s◎豆瓣链接 https://douban.com/subject/36581362/
9 r" @3 K. U- T" l# L( n3 \: m* N6 B◎集  数 5
: Y4 S0 R. Z1 L2 J. k$ s◎片  长 11分钟
7 z$ {2 R0 t, k' n; U% I◎导  演 李勇 Yong Li! U  a! D3 m/ `# V" d1 _! s
' w; j% ?1 l0 A1 c0 |" t
◎简  介' p- S& |  h+ F& V
  9 F6 c8 B: B% u0 G$ R
  本季节目延续第一季的风格和基调,将目光投向全国的秋冬美食大宗,深入顶级食材的原产地,涉足至大海、湖泊、高山、草场,呈现壮阔的自然与一方的水土与物产。通过美食与美酒的搭配,展示不同地域的秋冬时令食材,以及仰赖各方水土的人们多样化的生活。
2 o0 [3 A; T# l3 l4 P  
" a4 |, @& r# r第1集:江湖至味 · 高邮湖大闸蟹
# J4 L5 `' Q+ C+ ]' l0 a$ t. U5 T# n第2集:沧海一鲜 · 福建东山海鲜% U( d5 q) G7 j8 F/ A, ?! i7 ?
第3集:高山秘境 · 阿勒泰大尾羊1 ^( J) C( V: v* g
第4集:莽原寻味 · 坝上草原羊肉
0 D' K8 N5 N9 ^; A6 t第5集:巴蜀烟火 · 四川简阳羊肉
; G5 ^  ^4 C( U

' O% M7 T* \1 N# W  E
  1. $ _7 O9 k0 h! P' R7 `, g* ~& G
  2. General
    1 Q7 w' y6 L# u; O
  3. Complete name                  : 人间有味山河鲜 第2季 第1集:江湖至味 · 高邮湖大闸蟹 4K.mp4
    9 E3 o+ u5 [; Z5 Z( W- |, G
  4. Format                         : MPEG-47 P% z/ v+ L0 u3 U6 L# q8 _' L
  5. Format profile                 : Base Media0 |. t" a& G( c. q
  6. Codec ID                       : isom (isom/iso2/avc1/mp41)+ f# W3 v) l( V5 k0 l0 \; b
  7. File size                      : 1.13 GiB
    " M) }0 g$ o5 R# w& P& @
  8. Duration                       : 11 min 33 s
    2 K  W3 M* Z6 d2 B3 @4 X
  9. Overall bit rate               : 14.0 Mb/s7 {; Y" P6 Y# P) c6 t
  10. Writing application            : Lavf58.33.100+ {# g& t  d& O, N

  11. + M- k+ ^+ m6 ~. j- Z% Q/ D
  12. Video& W5 T) D2 l& Q1 c& ]4 l
  13. ID                             : 1
    6 r- {, u3 X$ x
  14. Format                         : AVC
    5 d' R9 j) ?' R, G: J
  15. Format/Info                    : Advanced Video Codec
    & |1 n. [( G# f
  16. Format profile                 : High@L5.11 y8 W2 |5 C$ G2 d7 A: m
  17. Format settings                : CABAC / 4 Ref Frames
    " m- ~) A" I! B6 t4 Z3 {' w( `6 d
  18. Format settings, CABAC         : Yes
    * e, d  p) s1 M: I% o
  19. Format settings, Reference fra : 4 frames
    4 @0 G( \3 n/ O  s( {& w  H
  20. Codec ID                       : avc1
    " q+ j  O: b/ N0 `: J! P$ [
  21. Codec ID/Info                  : Advanced Video Coding
    # m1 X7 D, N" {1 x( s, C4 M
  22. Duration                       : 11 min 33 s
    ( o( L$ _" _$ z
  23. Bit rate                       : 13.9 Mb/s
    3 a2 q$ D& O4 \# d/ O  x! Q* @
  24. Width                          : 3 840 pixels
    1 j1 U) h9 O8 v# f& J& O: n
  25. Height                         : 2 160 pixels* T+ p. U2 s" z# p3 s1 ?* ^
  26. Display aspect ratio           : 16:9
    / V( x' f! N; g6 o4 J
  27. Frame rate mode                : Constant; s) Y) R& x* a0 c- }* W8 M3 n
  28. Frame rate                     : 25.000 FPS" j9 U* v5 @+ ?
  29. Color space                    : YUV6 A. ]* E1 O$ |- E
  30. Chroma subsampling             : 4:2:05 j5 Q$ R6 k# q% l6 a7 @) R+ n, t
  31. Bit depth                      : 8 bits
    : g: g) X+ n6 U' ?) N/ Q  I$ b3 B
  32. Scan type                      : Progressive4 u. G  V* J1 G2 \* B1 U! C
  33. Bits/(Pixel*Frame)             : 0.067
    / A# Q) m$ K, h0 }- Y
  34. Stream size                    : 1.12 GiB (99%)( l7 L" M( b8 X' X9 \
  35. Writing library                : x264 core 158 r2984 3759fcb
    6 c8 }2 B+ u8 ~7 B
  36. Encoding settings              : cabac=1 / ref=1 / deblock=1:0:0 / analyse=0x3:0x3 / me=dia / subme=1 / psy=1 / psy_rd=1.00:0.00 / mixed_ref=0 / me_range=16 / chroma_me=1 / trellis=0 / 8x8dct=1 / cqm=0 / deadzone=21,11 / fast_pskip=1 / chroma_qp_offset=0 / threads=9 / lookahead_threads=1 / sliced_threads=0 / nr=0 / decimate=1 / interlaced=0 / bluray_compat=0 / constrained_intra=0 / bframes=3 / b_pyramid=2 / b_adapt=1 / b_bias=0 / direct=1 / weightb=1 / open_gop=0 / weightp=1 / keyint=250 / keyint_min=25 / scenecut=40 / intra_refresh=0 / rc=crf / mbtree=0 / crf=24.0 / qcomp=0.60 / qpmin=0 / qpmax=69 / qpstep=4 / ip_ratio=1.40 / pb_ratio=1.30 / aq=1:1.00. I6 F- }3 w$ T
  37. Codec configuration box        : avcC
    6 F) C% _% t( B: I4 n0 n

  38. 8 |% e% Q/ r; L/ ^
  39. Audio  j6 N9 w+ p1 k. Z) \; W9 d* l- v
  40. ID                             : 2' y( e$ i7 s3 ?% |3 T* l# r3 T
  41. Format                         : AAC LC* f! n/ Q. Q9 n) E# @, ~) X
  42. Format/Info                    : Advanced Audio Codec Low Complexity
    5 E7 {$ R4 T: a9 b# x6 J
  43. Codec ID                       : mp4a-40-2; i1 j* _, t% }& m& h" ?5 D
  44. Duration                       : 11 min 33 s
    4 Z, \0 h9 Y4 s
  45. Bit rate mode                  : Constant5 u* @" b1 l. C+ G4 Q1 V/ `
  46. Bit rate                       : 128 kb/s) d/ E8 M9 D$ L+ j
  47. Channel(s)                     : 2 channels
    : o8 ]' |* H2 V" c- u
  48. Channel layout                 : L R7 Y/ S4 b% t1 ~; K9 M2 h$ b2 ]4 \
  49. Sampling rate                  : 48.0 kHz
    % c5 ^" t7 t. J! M
  50. Frame rate                     : 46.875 FPS (1024 SPF)  @4 M: {. a& s3 f8 i2 r
  51. Compression mode               : Lossy
    & Q9 y- ~( b: u' f' v
  52. Stream size                    : 10.6 MiB (1%)( {* y5 j; p; d5 ^, A' W: A
  53. Default                        : Yes4 @! \! r1 V' o" q4 r3 l
  54. Alternate group                : 1
    $ W9 G' _( G5 J
  55.   `& U& E; N. s- P4 K7 d
复制代码

$ e6 o0 B! g: X7 v' s! q0 N6 p
0 Y. i8 {8 z. F' `, C' m7 g6 e8 s. G1 [
请点击此处下载

请先注册会员后再进行下载

已注册会员,请先登录后下载

文件名称:《人间有味山河鲜 第二季》 
下载次数:20  文件大小:0 Bytes  售价:30 记录币[记录]
下载权限: 不限 月度VIP会员 以上 [购买VIP会员] [充值记录币]
★ 注意:购买后请务必刷新页面~ ★


下载帮助 - 免责申明1、本主题所有言论和图片纯属会员个人意见,与本论坛立场无关
2、本站所有主题由该帖子作者发表,该帖子作者与第一记录论坛-第1记录论坛-第壹记录论坛享有帖子相关版权
3、其他单位或个人使用、转载或引用本文时必须同时征得该帖子作者和第一记录论坛-第1记录论坛-第壹记录论坛的同意
4、帖子作者须承担一切因本文发表而直接或间接导致的民事或刑事法律责任
5、本帖部分内容转载自其它媒体,但并不代表本站赞同其观点和对其真实性负责
6、如本帖侵犯到任何版权问题,请立即告知本站,本站将及时予与删除并致以最深的歉意
7、第一记录论坛-第1记录论坛-第壹记录论坛管理员和版主有权不事先通知发贴者而删除本文
8、全站统一下载网盘为百度网盘,全站统一解压密码为 www.1jilu.cn

第一记录社区汇集了大量优秀经典纪录片,集纳国内地方台、BBC、国家地理、美国历史频道、NHK等各具特色的高清正版纪录片资源,是国内纪录片资源较为丰富的视频下载网站
您需要登录后才可以回帖 登录 | 我要注册